Descendants 2 | Get Down | Janel MoloneyPrzyjaciele / Friends (1994... | Przystanek Alaska (Northern... | Przystań / Haven (2010)

NHK - Medical Frontiers: Back Off, Back Pain! (2018)

Posted By: notbanned
1080p (FullHD) / HDTV
NHK - Medical Frontiers: Back Off, Back Pain! (2018)

NHK - Medical Frontiers: Back Off, Back Pain! (2018)
HDTV | 1916x1080 | .MKV/AVC @ 3698 Kbps | 27 min 59 s | 834 MiB
Audio: English AC3 384 kbps, 2 channels | Subs: None
Genre: Documentary

Chronic lower back pain can be both debilitating and frustrating. The cause is often unclear, making it difficult to treat. As a result, many people give up on medical treatment. Now, researchers in Japan are using new approaches that target the body and the brain to successfully offer relief. One therapy eases pain with injections of saline solution. In another, a simple exercise helps people overcome the fear of pain and promotes recovery.

General
Complete name : Medical.Frontiers.Back.Off.Back.Pain.1080p.mkv
Format : Matroska
Format version : Version 4 / Version 2
File size : 834 MiB
Duration : 27 min 59 s
Overall bit rate : 4 164 kb/s

Video
ID : 1
Format : AVC
Format/Info : Advanced Video Codec
Format profile : [email protected]
Format settings, CABAC : Yes
Format settings, ReFrames : 4 frames
Codec ID : V_MPEG4/ISO/AVC
Duration : 27 min 59 s
Bit rate : 3 698 kb/s
Width : 1 916 pixels
Height : 1 080 pixels
Display aspect ratio : 16:9
Frame rate mode : Constant
Frame rate : 50.000 FPS
Color space : YUV
Chroma subsampling : 4:2:0
Bit depth : 8 bits
Scan type : Progressive
Bits/(Pixel*Frame) : 0.036
Stream size : 740 MiB (89%)
Encoding settings : cabac=1 / ref=4 / deblock=1:0:0 / analyse=0x3:0x113 / me=hex / subme=8 / psy=1 / psy_rd=1.00:0.00 / mixed_ref=1 / me_range=16 / chroma_me=1 / trellis=2 / 8x8dct=1 / cqm=0 / deadzone=21,11 / fast_pskip=1 / chroma_qp_offset=-2 / threads=12 / lookahead_threads=2 / sliced_threads=0 / nr=0 / decimate=1 / interlaced=0 / bluray_compat=0 / constrained_intra=0 / bframes=3 / b_pyramid=2 / b_adapt=1 / b_bias=0 / direct=3 / weightb=1 / open_gop=0 / weightp=2 / keyint=250 / keyint_min=25 / scenecut=40 / intra_refresh=0 / rc_lookahead=50 / rc=crf / mbtree=1 / crf=21.0 / qcomp=0.60 / qpmin=0 / qpmax=69 / qpstep=4 / ip_ratio=1.40 / aq=1:1.00
Language : English
Default : Yes
Forced : No
Color range : Limited
Matrix coefficients : BT.709

Audio
ID : 2
Format : AC-3
Format/Info : Audio Coding 3
Format settings, Endianness : Big
Codec ID : A_AC3
Duration : 27 min 59 s
Bit rate mode : Constant
Bit rate : 384 kb/s
Channel(s) : 2 channels
Channel positions : Front: L R
Sampling rate : 48.0 kHz
Frame rate : 31.250 FPS (1536 spf)
Bit depth : 16 bits
Compression mode : Lossy
Stream size : 76.9 MiB (9%)
Language : English
Service kind : Complete Main
Default : Yes
Forced : No


Screenshots:

NHK - Medical Frontiers: Back Off, Back Pain! (2018)

NHK - Medical Frontiers: Back Off, Back Pain! (2018)

NHK - Medical Frontiers: Back Off, Back Pain! (2018)

NHK - Medical Frontiers: Back Off, Back Pain! (2018)