Former UFC Fighter Reveals His Solution To Melting Body Fat And Getting Ripped | Link Removal Policy(DMCA) | Epouvante-horreurAndrea Londo | Allen Maldonado | Adriyan Rae

BBC - Antiques Roadshow Series 41 Pioneering Women: Special (2018)

Posted By: notbanned
720p (HD) / HDTV
BBC - Antiques Roadshow Series 41 Pioneering Women: Special (2018)

BBC - Antiques Roadshow Series 41 Pioneering Women: Special (2018)
HDTV | 1280x720 | .MP4/AVC @ 3235 Kbps | 58 min 0 s | 1.38 GiB
Audio: English AAC 160 kbps, 2 channels | Subs: English
Genre: Documentary

A celebration of the achievements of some of Britain's most inspirational women, filmed in the Houses of Parliament and marking 100 years since women first won the right to cast their vote in 1918. Starting with the suffragettes and ending with modern-day heroines and history makers, the programme looks at women who have broken down barriers in every aspect of life. Among those featured is Christina Broom, the first female press photographer, who produced wonderfully intimate portraits of suffragettes, troops in Chelsea Barracks and the royal family. She was one of only two photographers given special access to photograph King George V lying in state in Westminster Hall. Presenter Fiona Bruce meets Tania, the daughter of Violette Szabo, the British secret agent who was executed for helping the French resistance. Tania was only two when Violette was killed and had the honour of receiving her mother's George Cross for bravery.

General
Complete name : BBC.Antiques.Roadshow.Series.41.Pioneering.Women.Special.720p.mp4
Format : MPEG-4
Format profile : Base Media
Codec ID : isom (isom)
File size : 1.38 GiB
Duration : 58 min 0 s
Overall bit rate mode : Variable
Overall bit rate : 3 398 kb/s

Video
ID : 1
Format : AVC
Format/Info : Advanced Video Codec
Format profile : [email protected]
Format settings, CABAC : No
Format settings, ReFrames : 1 frame
Format settings, GOP : M=1, N=12
Codec ID : avc1
Codec ID/Info : Advanced Video Coding
Duration : 58 min 0 s
Bit rate : 3 235 kb/s
Maximum bit rate : 9 187 kb/s
Width : 1 280 pixels
Height : 720 pixels
Display aspect ratio : 16:9
Frame rate mode : Constant
Frame rate : 25.000 FPS
Color space : YUV
Chroma subsampling : 4:2:0
Bit depth : 8 bits
Scan type : Progressive
Bits/(Pixel*Frame) : 0.140
Stream size : 1.31 GiB (95%)
Encoded date : UTC 2018-06-11 01:25:45
Tagged date : UTC 2018-06-11 11:09:50

Audio
ID : 2
Format : AAC
Format/Info : Advanced Audio Codec
Format profile : LC
Codec ID : 40
Duration : 58 min 0 s
Bit rate mode : Variable
Bit rate : 160 kb/s
Maximum bit rate : 237 kb/s
Channel(s) : 2 channels
Channel positions : Front: L R
Sampling rate : 48.0 kHz
Frame rate : 46.875 FPS (1024 spf)
Compression mode : Lossy
Stream size : 66.4 MiB (5%)
Language : English
Encoded date : UTC 2018-06-11 11:09:42
Tagged date : UTC 2018-06-11 11:09:50

Text
ID : 3
Format : Timed Text
Codec ID : tx3g
Duration : 57 min 29 s
Bit rate mode : Variable
Bit rate : 257 b/s
Stream size : 108 KiB (0%)
Forced : No
Encoded date : UTC 2018-06-11 11:09:50
Tagged date : UTC 2018-06-11 11:09:50


Screenshots:

BBC - Antiques Roadshow Series 41 Pioneering Women: Special (2018)

BBC - Antiques Roadshow Series 41 Pioneering Women: Special (2018)

BBC - Antiques Roadshow Series 41 Pioneering Women: Special (2018)