download the full song closer | Durham County | Futurama Season 2 (1999 – 2000)Beatport Tech House | BD Seikimatsu Occult Gakuin Subtitle Indonesia | Phim chiếu rạp

Stan Getz / Charlie Byrd - Jazz Samba (1962/2014) [Official Digital Download 24bit/192kHz] RE-UP

Posted By: HDV
Stan Getz / Charlie Byrd - Jazz Samba (1962/2014) [Official Digital Download 24bit/192kHz] RE-UP

Stan Getz / Charlie Byrd - Jazz Samba (1962/2014)
FLAC (tracks) 24 bit/192 kHz | Time - 35:15 minutes | 1,46 GB
Studio Master, Official Digital Download | Artwork: Digital booklet

"Jazz Samba" was the first major bossa-nova album on the American jazz scene. It was the beginning of bossa-nova excitement in America, which climxed in the mid-1960s. The album was very strongly inspired and designed by the guitarist Charlie Byrd. It was inducted into the Grammy Hall of Fame in 2010.

Partly because of its Brazilian collaborators and partly because of "The Girl From Ipanema," Getz/Gilberto is nearly always acknowledged as the Stan Getz bossa nova LP. But Jazz Samba is just as crucial and groundbreaking; after all, it came first, and in fact was the first full-fledged bossa nova album ever recorded by American jazz musicians. And it was just as commercially successful, topping the LP charts and producing its own pop chart hit single in "Desafinado." It was the true beginning of the bossa nova craze, and introduced several standards of the genre (including Ary Barroso's "Bahia" and Antonio Carlos Jobim's "Desafinado" and "Samba de Uma Nota Só" [aka "One Note Samba"]). But above all, Jazz Samba stands on its own artistic merit as a shimmering, graceful collection that's as subtly advanced – in harmony and rhythm – as it is beautiful. Getz and his co-billed partner, guitarist Charlie Byrd – who was actually responsible for bringing bossa nova records to the U.S. and introducing Getz to the style – have the perfect touch for bossa nova's delicate, airy texture. For his part, Byrd was one of the first American musicians to master bossa nova's difficult, bubbling syncopations, and his solos are light and lilting. Meanwhile, Getz's playing is superb, simultaneously offering a warm, full tone and a cool control of dynamics; plus, Byrd's gently off-kilter harmonies seem to stimulate Getz's melodic inventiveness even more than usual. But beyond technique, Getz intuitively understands the romanticism and the undercurrent of melancholy inherent in the music, and that's what really made Jazz Samba such a revelatory classic. Absolutely essential for any jazz collection.

Tracklist:

01 - Desafinado
02 - Samba Dees Days
03 - O Pato
04 - Samba Triste
05 - Samba De Uma Nota So
06 - E Luxo So
07 - Bahia
08 - Desafinado

Produced by Creed Taylor. Engineered by Ed Green.
Recorded on February 13, 1962 at the All Souls Unitarian Church, Washington, DC.

Musicians:
Stan Getz - Tenor Saxophone
Charlie Byrd - Guitar
Gene Byrd - Guitar, Bass
Keter Betts - Bass
Buddy Deppenschmidt - Drums
Bill Reinchenbach - Percussion

Analyzed: Stan Getz/Charlie Byrd / Jazz Samba
––––––––––––––––––––––––––––––––––––––––

DR Peak RMS Duration Track
––––––––––––––––––––––––––––––––––––––––
DR13 -3.64 dB -20.12 dB 5:51 01-Desafinado
DR12 -2.14 dB -18.61 dB 3:33 02-Samba Dees Days
DR12 -3.81 dB -20.48 dB 2:30 03-O Pato
DR12 -3.88 dB -20.72 dB 4:45 04-Samba Triste
DR13 -4.42 dB -21.43 dB 6:10 05-Samba De Uma Nota So
DR12 -3.77 dB -19.79 dB 3:41 06-E Luxo So
DR13 -4.38 dB -21.25 dB 6:39 07-Bahia
DR11 -2.44 dB -17.48 dB 2:06 08-Desafinado
––––––––––––––––––––––––––––––––––––––––

Number of tracks: 8
Official DR value: DR12

Samplerate: 192000 Hz
Channels: 2
Bits per sample: 24
Bitrate: 5622 kbps
Codec: FLAC
================================================================================


Thanks to the Original customer!

Stan Getz and Charlie Byrd - Jazz Samba (1962) [DSD]