Green Day - Awesome As Fuck. | BD EF : A Tale of Memories Subtitle Indonesia | Steven MackintoshHalle Berry | Belle.Et.Sebastien.3.Le.Dernier.Chapitre.2018.FRENCH.BDRip.XviD.AC3-EXTREME | Nerdland (2016)

Jorge Vazquez - Pasional (2018) [Official Digital Download]

Posted By: HDV
Jorge Vazquez - Pasional (2018) [Official Digital Download]

Jorge Vázquez - Pasional (2018)
FLAC (tracks) 24-bit/48 kHz | Time - 38:33 minutes | 502 MB
Studio Master, Official Digital Download | Artwork: Front cover

Two years after the release of his debut album "Así!", Jorge Vázquez presents "PASIONAL", his new album. It participates the Nahuel Pennisi from Varelense and musicians of the stature of Daniel "Pipi" Piazzolla. Jorge Vázquez, owner of a remarkable voice, shines singing masterpieces of popular song such as "On this gray afternoon", "Serenade of quiet love", "Amnesia", "I want to see you one more time", among others.


The platense musician, winner of "Elected, music in your hands" continues to consolidate in the artistic environment and with this second album demonstrates his professionalism and because the public continues to choose it. Noteworthy is the participation of notable artists such as Varelense Nahuel Pennisi ("The broken glass"), Karina "The Little Princess" ("Story of a love"), Franco Luciani ("Grisel") and international pianist Arthur Hanlon ("Por a head"). The production was by Juan Blas Caballero and recognized musicians as Nicolás Ledesma (piano, arrangements and musical direction), Daniel "Pipi" Piazzolla (drums), Pablo Agri (violin), Daniel Falasca (double bass) and Horacio Romo (bandoneon), among others. He also put his talent on recording the renowned Jorge "Portugués" Da Silva. The album was mixed and mastered at MG Studios, Madrid.

Vázquez also looks like a composer in that ode to friends and the neighborhood that is "Buenos Muchachos", a theme that opens the album and that already has his video clip, filmed in the Bar Imperio de La Plata, his city.

Tracklist:

01 - Buenos Muchachos
02 - Pasional
03 - En Esta Tarde Gris
04 - Historia de un Amor
05 - Amnesia
06 - Gricel
07 - Quiero Verte una Vez Mas
08 - La Copa Rota
09 - Serenata del Amor Callado
10 - Y Ahora Que Hare
11 - Por una Cabeza

Analyzed: Jorge Vazquez / Pasional
––––––––––––––––––––––––––––––––––––––––

DR Peak RMS Duration Track
––––––––––––––––––––––––––––––––––––––––
DR6 -0.05 dB -8.53 dB 3:39 01-Buenos Muchachos
DR8 -0.05 dB -9.77 dB 3:28 02-Pasional
DR7 -0.05 dB -9.59 dB 4:31 03-En Esta Tarde Gris
DR6 -0.05 dB -8.47 dB 3:40 04-Historia de un Amor
DR7 -0.05 dB -9.02 dB 2:37 05-Amnesia
DR7 -0.05 dB -8.54 dB 3:31 06-Gricel
DR7 -0.05 dB -9.32 dB 3:36 07-Quiero Verte una Vez Mas
DR9 -0.05 dB -10.62 dB 3:21 08-La Copa Rota
DR7 -0.05 dB -7.71 dB 3:05 09-Serenata del Amor Callado
DR7 -0.05 dB -9.13 dB 3:41 10-Y Ahora Que Hare
DR9 -0.05 dB -10.96 dB 3:23 11-Por una Cabeza
––––––––––––––––––––––––––––––––––––––––

Number of tracks: 11
Official DR value: DR7

Samplerate: 48000 Hz
Channels: 2
Bits per sample: 24
Bitrate: 1549 kbps
Codec: FLAC
================================================================================


Thanks to the Original customer!