Kung Fu Panda: Legends of Awesomeness | Eddie Marsan | Travelers 2016 S01 1080p BluRay X264-DEFLATE[rartv]Meri Nimmo | TheVideo | Raft v1 01b

Charlie Byrd - Delicately (1968/2018) [Official Digital Download 24-bit/192kHz]

Posted By: HDV
Charlie Byrd - Delicately (1968/2018) [Official Digital Download 24-bit/192kHz]

Charlie Byrd - Delicately: 'The Stroke of Genius' (1968/2018)
FLAC (tracks) 24-bit/192 kHz | Time - 30:14 minutes | 1,11 GB
Studio Master, Official Digital Download | Artwork: Front cover

"Delicately" is an aptly-titled recording that captures the artful acoustic stylings of the legendary guitar master Charlie Byrd, one of the greatest jazz guitarists who was a major influence, alongside Stan Getz and others, on the introduction of the "Bossa Nova" craze to the USA. This performance includes Charlie on 5 richly-voiced solo guitar tracks and 6 tracks by a trio which includes Mario Darpino on flute and Charlie's talented brother Joe Byrd on double bass violin. Playing familiar and some obscure beautiful ballads from Broadway, movies, and TV, this is a recording of very pleasant, beautiful music that stays close to the thematic contours and includes superb performances of the theme songs from "The Fox", "The Valley of the Dolls", and "Two for the Road", as well as "When I Look In Your Eyes" and a very delicate "Sunrise, Sunset". But best of all are the performances of Glenn Campbell's highly-acclaimed "By The Time I Get To Phoenix" by Charlie and Mario, and a marvelous, swinging trio presentation of "Soon It's Gonna Rain" (from "The Fantasticks"). 2 to 4 minute tracks for direct listening or pleasant background music by a master guitarist in his prime. Very Definitely Recommended.

Tracklist:

01 - Theme from The Fox
02 - Somewhere, My Love
03 - Theme from Valley Of The Dolls
04 - Try to Remember
05 - Two For The Road
06 - When I Look In Your Eyes
07 - Soon It's Gonna Rain
08 - Once Upon A Time
09 - By the Time I Get to Phoenix
10 - Sunrise, Sunset
11 - Sunday Mornin'

Produced by Teo Macero.
Engineers: Arthur Kendy, Frank Laico.

Musicians:
Charlie Byrd - guitar
Mario Darpino - flute
Joe Byrd - bass

Analyzed: Charlie Byrd / Delicately 'The Stroke of Genius'
––––––––––––––––––––––––––––––––––––––––

DR Peak RMS Duration Track
––––––––––––––––––––––––––––––––––––––––
DR11 -3.01 dB -16.74 dB 4:10 01-Theme from The Fox
DR14 -3.87 dB -21.56 dB 2:19 02-Somewhere, My Love
DR12 -3.82 dB -19.00 dB 2:54 03-Theme from Valley Of The Dolls
DR13 -5.69 dB -22.54 dB 2:30 04-Try to Remember
DR12 -4.68 dB -19.08 dB 2:54 05-Two For The Road
DR13 -4.96 dB -21.43 dB 2:23 06-When I Look In Your Eyes
DR11 -4.18 dB -18.47 dB 3:30 07-Soon It's Gonna Rain
DR14 -5.07 dB -23.23 dB 2:28 08-Once Upon A Time
DR11 -4.58 dB -18.38 dB 2:31 09-By the Time I Get to Phoenix
DR13 -6.61 dB -23.30 dB 1:52 10-Sunrise, Sunset
DR10 -4.43 dB -18.21 dB 2:46 11-Sunday Mornin'
––––––––––––––––––––––––––––––––––––––––

Number of tracks: 11
Official DR value: DR12

Samplerate: 192000 Hz
Channels: 2
Bits per sample: 24
Bitrate: 5045 kbps
Codec: FLAC
================================================================================


Thanks to the Original customer!