Marvel : Les Agents du SHIELD S05E20 VOSTFR HDTV | Dr. Dani Santino – Spiel des Lebens | Vectors Vintage Gold ElementsTHE BLACKLIST | Lego Nexo Knights | TheVideo

Benoit Delbecq - Nu-Turn (2003/2012) [DSD64 + Hi-Res FLAC]

Posted By: HDV
Benoit Delbecq - Nu-Turn (2003/2012) [DSD64 + Hi-Res FLAC]

Benoît Delbecq - Nu-Turn (2003/2012)
DSD64 (.dsf) 1 bit/2,8 MHz | Time - 63:36 minutes | 1,58 GB
FLAC (tracks) 24-bit/96 kHz | Time - 63:36 minutes | 1,28 GB
Studio Master, Official Digital Download | Artwork: Digital booklet

Benoît Delbecq is a uniquely gifted French pianist who has created his own music using ideas and techniques from contemporary classical jazz, Pygmy polyphony and European improvisation. He prepares the piano with various materials such as eraser bits and carved wooden twigs and improvises on short, overlapping vamps and patterns; the result is a complex, spacious sound that hardly seems to be emanating from a single instrument. On "Nu-turn", his debut solo release from 2003, Delbecq stretches out on eight astonishingly structured improvisations; the final 11 minute composition is a computer-created ambient “remix” that completely transforms the material.

Highly acclaimed in Europe, Benoit Delbecq leads or co-leads a number of bands (The Recyclers, Karket, Ambitronix, PianoBook) and has releases on Naive, Plush, Deux Z and other labels. He has three previous releases on Songlines: two duos with Vancouver clarinetist François Houle and one leading the Delbecq 5.

Though he has been one of the avatars of prepared piano for over a decade, Benoit Delbecq has only now released a solo album. Nu-Turn (Songlines) is well worth the long wait, a strikingly well-defined recording featuring an immaculate Steinway D piano. Throughout the album, Delbecq's affinity for African and Asian folk music (which is most vividly evident in the timbres created by his driftwood preparations, which suggest indigenous percussion and string instruments) and his Paul Bley-derived lyricism and floating pulse constantly dovetail about one another. This accentuates the exotic, mysterious qualities of Delbecq's music that, in the past, have been tempered in other settings. Propelled by a cool attack, the music lingers in the air like incense, pungent but not overwhelming. Nu-Turn is an excellent way to become familiar with one of the most distinctive pianists on the international scene.

Tracklist:

01 - In Rainbows
02 - In Lilac
03 - On ne dit pas regarder la lune, on dit "luner"
04 - On Laterite
05 - Into Neon
06 - On Embers
07 - Nu-Turn (étude de nu)
08 - In Funfairs
09 - Into White

Tracks "1-8" recorded on December 11-12, 2001 at Recictal Hall, University of British Columbia.
Recorded, Mixed and Mastered in Pure DSD except track "9" which is a 24bit/44Khz remix transfered to DSD.
DSD Engineer: Graemme Brown.

Musicians:
Benoît Delbecq - piano

Analyzed: Benoît Delbecq / Nu-Turn
––––––––––––––––––––––––––––––––––––––––

DR Peak RMS Duration Track
––––––––––––––––––––––––––––––––––––––––
DR14 -9.21 dB -27.64 dB 7:12 01-In Rainbows
DR14 -5.56 dB -26.45 dB 8:18 02-In Lilac
DR17 -13.15 dB -33.77 dB 6:44 03-On ne dit pas regarder la lune, on dit "luner"
DR14 -9.06 dB -28.00 dB 7:50 04-On Laterite
DR13 -9.89 dB -28.72 dB 5:59 05-Into Neon
DR14 -9.80 dB -28.54 dB 5:38 06-On Embers
DR12 -6.91 dB -25.20 dB 6:12 07-Nu-Turn (étude de nu)
DR14 -6.87 dB -27.41 dB 4:40 08-In Funfairs
DR14 -12.88 dB -30.68 dB 11:03 09-Into White
––––––––––––––––––––––––––––––––––––––––

Number of tracks: 9
Official DR value: DR14

Samplerate: 2822400 Hz / PCM Samplerate: 88200 Hz
Channels: 2
Bits per sample: 1
Bitrate: 5645 kbps
Codec: DSD64
================================================================================


Thanks to the Original customer!