Watch Movie | Alberto López | Phim bộ Âu - MỹClick to share on Google+ (Opens in new window) | Adam Tuominen | Terror in the Woods

Aarhus Symphony Orchestra & Tobias Ringborg - Tarp: Orchestral Works, Vol. 1 (2018) [Official Digital Download 24/192]

Posted By: SERTiL
Aarhus Symphony Orchestra & Tobias Ringborg - Tarp: Orchestral Works, Vol. 1 (2018) [Official Digital Download 24/192]

Aarhus Symphony Orchestra & Tobias Ringborg - Tarp: Orchestral Works, Vol. 1 (2018)
FLAC (tracks) 24-bit/192 kHz | Time - 54:30minutes | 1.66 GB
Studio Master, Official Digital Download | Artwork: Digital Booklet

Not known to many today, Svend Erik Tarp (1908-1994) was one of the most prominent Danish composers of his time, boasting a large and versatile body of work which more or less has survived in obscurity. This series now sheds new light on a selection of Tarp’s orchestral works, opening chronologically with some suites, overtures, and two small concertos. These are early and charming works that show a development from the elegant and easily accessible towards a more clarified neoclassicist style, which later became one of Tarp’s hallmarks. This is the first of three albums in the set which will focus on Tarp’s orchestral music. The succeeding volumes will contain Tarp’s Symphonies 1-3 and his Piano Concerto. The series is chronologically built, illustrating Tarp’s development as a composer, starting with his elegant music, inspired by French impressionism. The two soloists on this release are both concertmasters of Aarhus Symphony Orchestra.

Tracklist:
1. Den detroniserede dyretaemmer Suite, Op. 38: I. Cirkuskapellet spiller, Op. Marcia vivace 01:33
2. Den detroniserede dyretaemmer Suite, Op. 38: II. Løverne. Lento e pesante 01:27
3. Den detroniserede dyretaemmer Suite, Op. 38: III. Danserinden. Allegretto 01:20
4. Den detroniserede dyretaemmer Suite, Op. 38: IV. Touché 00:08
5. Den detroniserede dyretaemmer Suite, Op. 38: V. Akrobaten. Vivace 00:53
6. Den detroniserede dyretaemmer Suite, Op. 38: VI. Wienervals. Valse lento e rubato 01:15
7. Den detroniserede dyretaemmer Suite, Op. 38: VII. Dyretæmmeren svinger pisken. Furioso 00:51
8. Den detroniserede dyretaemmer Suite, Op. 38: VIII. Scene & Danse triste. Lento doloroso 02:25
9. Den detroniserede dyretaemmer Suite, Op. 38: IX. Finale. Molto vivace 02:40
10. Lena Kildahl, Concertino for Flute & Orchestra in C Major, Op. 30: I. Allegro vivace 04:42
11. Lena Kildahl, Concertino for Flute & Orchestra in C Major, Op. 30: II. Andantino 03:06
12. Lena Kildahl, Concertino for Flute & Orchestra in C Major, Op. 30: III. Rondo giocoso. Molto vivace 03:08
13. Lystspilouverture No. 1, Op. 36 06:49
14. Stanislav Pronin, Concertino for Violin & Orchestra, Op. 13: I. Allegro moderato - Cadenza 06:39
15. Stanislav Pronin, Concertino for Violin & Orchestra, Op. 13: II. Molto sostenuto 03:27
16. Stanislav Pronin, Concertino for Violin & Orchestra, Op. 13: III. Tempo primo Allegro moderato 01:33
17. Suite over danske folkevisemotiver, Op. 17: I. Ravnen han flyver om aftenen 03:54
18. Suite over danske folkevisemotiver, Op. 17: II. Skæmtevise 03:40
19. Suite over danske folkevisemotiver, Op. 17: III. Liden Kirstens dans 02:07
20. Suite over danske folkevisemotiver, Op. 17: IV. Hr. Ramund 02:53

Personnel:
Lena Kildahl (flute)
Stanislav Pronin (violin)
Aarhus Symphony Orchestra
Tobias Ringborg (conductor)

foobar2000 1.3.7 / Dynamic Range Meter 1.1.1
log date: 2018-06-14 11:01:36

––––––––––––––––––––––––––––––––––––––––
Analyzed: Aarhus Symphony Orchestra & Tobias Ringborg / Tarp: Orchestral Works, Vol. 1
––––––––––––––––––––––––––––––––––––––––

DR Peak RMS Duration Track
––––––––––––––––––––––––––––––––––––––––
DR14 -1.09 dB -20.33 dB 1:34 01-Den detroniserede dyretaemmer Suite, Op. 38: I. Cirkuskapellet spiller op. Marcia vivace
DR13 -10.69 dB -28.76 dB 1:28 02-Den detroniserede dyretaemmer Suite, Op. 38: II. Løverne. Lento e pesante
DR12 -13.28 dB -32.26 dB 1:21 03-Den detroniserede dyretaemmer Suite, Op. 38: III. Danserinden. Allegretto
DR12 -1.17 dB -13.38 dB 0:09 04-Den detroniserede dyretaemmer Suite, Op. 38: IV. Touché
DR12 -4.98 dB -28.61 dB 0:53 05-Den detroniserede dyretaemmer Suite, Op. 38: V. Akrobaten. Vivace
DR13 -2.32 dB -20.91 dB 1:16 06-Den detroniserede dyretaemmer Suite, Op. 38: VI. Wienervals. Valse lento e rubato
DR11 -2.88 dB -20.20 dB 0:52 07-Den detroniserede dyretaemmer Suite, Op. 38: VII. Dyretæmmeren svinger pisken. Furioso
DR12 -16.98 dB -35.46 dB 2:25 08-Den detroniserede dyretaemmer Suite, Op. 38: VIII. Scene & Danse triste. Lento doloroso
DR15 -0.87 dB -20.44 dB 2:41 09-Den detroniserede dyretaemmer Suite, Op. 38: IX. Finale. Molto vivace
DR16 -4.70 dB -25.52 dB 4:43 10-Concertino for Flute & Orchestra in C Major, Op. 30: I. Allegro vivace
DR11 -14.90 dB -30.65 dB 3:07 11-Concertino for Flute & Orchestra in C Major, Op. 30: II. Andantino
DR15 -5.23 dB -26.01 dB 3:09 12-Concertino for Flute & Orchestra in C Major, Op. 30: III. Rondo giocoso. Molto vivace
DR15 -1.26 dB -23.08 dB 6:50 13-Lystspilouverture No. 1, Op. 36
DR16 -0.72 dB -23.56 dB 6:39 14-Concertino for Violin & Orchestra, Op. 13: I. Allegro moderato - Cadenza
DR13 -10.67 dB -29.76 dB 3:28 15-Concertino for Violin & Orchestra, Op. 13: II. Molto sostenuto
DR12 -0.53 dB -19.48 dB 1:34 16-Concertino for Violin & Orchestra, Op. 13: III. Tempo primo (Allegro moderato)
DR11 -12.37 dB -30.62 dB 3:55 17-Suite over danske folkevisemotiver, Op. 17: I. Ravnen han flyver om aftenen
DR14 -0.64 dB -21.05 dB 3:41 18-Suite over danske folkevisemotiver, Op. 17: II. Skæmtevise
DR13 -13.39 dB -32.74 dB 2:07 19-Suite over danske folkevisemotiver, Op. 17: III. Liden Kirstens dans
DR13 -2.17 dB -21.42 dB 2:53 20-Suite over danske folkevisemotiver, Op. 17: IV. Hr. Ramund
––––––––––––––––––––––––––––––––––––––––

Number of tracks: 20
Official DR value: DR13

Samplerate: 192000 Hz
Channels: 2
Bits per sample: 24
Bitrate: 4486 kbps
Codec: FLAC
================================================================================


Thanks to the Original customer.