Animal Adventures | F. Murray Abraham | Gundam Build Divers Episode 11 Subtitle IndonesiaLost Control Anathema Alternative 4 | Daddy's Home 2 (2017) [VOSTFR] Blu-ray Having finally gotten used to each other's existence, Brad and Dusty must now deal with their intrusive fathers during the holidays. | Telugu Movie

Simon Andrews - Simon Andrews: And That Moment When the Bird Sings (2018) [Official Digital Download]

Posted By: SERTiL
Simon Andrews - Simon Andrews: And That Moment When the Bird Sings (2018) [Official Digital Download]

Simon Andrews - Simon Andrews: And That Moment When the Bird Sings (2018)
FLAC (tracks) 24-bit/44.1 kHz | Time - 61:10 minutes | 528 MB
Studio Master, Official Digital Download | Artwork: Digital Booklet

Simon Andrews has earned a reputation as a creator of eloquent concert music that blends harmonic complexity and lyricism, introversion and broad gestures, and delicate timbres and bold statements. Here, on his recording debut, AND THE MOMENT WHEN THE BIRD SINGS, he offers up 10 compositions performed in a variety of configurations, from duos to trios and quintets, all of which emphasize his proficiency in both vocal and instrumental music.

The opening track, Violin Dialogues I and II, presents violin and piano in conversation. The first Dialogue contrasts two sets of ideas, each instrument’s individual voice rising and falling until the two come together in a hard-won consensus. If Dialogue I is oppositional, Dialogue II is conversational, its narrative more about two characters who agree on the destination and differ only on the best way to reach it.

The album’s title track, borrowed from the poem “Song” by Seamus Heaney is by turns lyrical and passionate, intimate and robust, as the five performers’ instruments weave their way through various combinings. The four movements of For the earth is hollow and I have touched the sky, performed by The Newstead Trio, is a musical response to a concert which the composer attended at the American Composers Orchestra of music by Frank Zappa. An even more pop-cultural reference is the composition’s title track and fourth movement, which is a musical representation of a quote from an episode of Star Trek, originally “…for the world is hollow and I have touched the sky.”

The album’s first track to feature solo voice is My dove, my covey, an early lyrical poem by W.H. Auden, performed by a trio of oboe, violoncello and piano (played by Andrews,) After an extended violoncello solo, the piano presents a continuous stream of notes, giving the feeling of suspended time over which soprano Celeste Godin’s voice floats. In similar fashion, The heart has narrow banks, a beautiful poem written by Emily Dickenson, was chosen by the composer because it allowed him to create a more flexible harmonic language that could express lyrics such as “blue monotony” and “a wall of unattempted gauze” while keeping a consistent musical thread throughout.

Inspired by a visit to New Mexico, Abiquiu Trio, performed the Trio Clavino, displays the impact of the desert landscape and the work of Georgia O’Keeffe on Andrews. The language of all three movements, which is not “programme music” in the strict sense of the term, is a response to different facets of those two influences. The music of the piece’s final movement, begun during a short stay at Christ in the Desert, a living monastery where church services are intoned to Gregorian chants, is a strong reminder that in addition to his more secular work, Andrews is also noted for his compositions of church music.

Simon Andrews is an English composer who has lived and worked in the US for more than three decades. A winner of the 1985 Benjamin Britten Prize, Andrews’ music has been commissioned and performed to critical acclaim on both sides of the Atlantic. His multi-faceted career as a composer, conductor and teacher led him to undertake his own edition-completion of the Mozart Requiem, which has also been incredibly well-received. Andrews has also composed music for two documentaries, The Amish and Us and Saving Pennsylvania, for PBS.

Tracklist:
1. Violin Dialogues I & II 16:24
2. And That Moment When the Bird Sings 07:46
3. For the Earth Is Hollow and I Have Touched the Sky: I. Flowing Live 03:24
4. For the Earth Is Hollow and I Have Touched the Sky: II. Slow, Contemplative Live 05:45
5. For the Earth Is Hollow and I Have Touched the Sky: III. Cloches Live 03:10
6. For the Earth Is Hollow and I Have Touched the Sky: IV. And I Have Touched the Sky Live 01:16
7. Celeste Godin, Andrew Price, Aron Zelkowicz & Simon Andrews – My Dove, My Coney 04:09
8. The Heart Has Narrow Banks 03:19
9. Abiquiu Trio: I. Landscape 04:45
10. Abiquiu Trio: II. Light 05:30
11. Abiquiu Trio: III. Untitled Red and Yellow Cliffs 05:42

Personnel:
Joanna Kurkowicz, violin
Simon Andrews, piano
Doris Hall-Gulati, clarinet
Gregory Vitale, violin
Christine Vitale, violin
Kenneth Stalberg, viola
Aron Zelkowicz, cello
Simon Andrews, conductor, piano
The Newstead Trio
Celeste Godin, soprano
Andrew Price, oboe
Aron Zelkowicz, violoncello Trio Clavino

foobar2000 1.3.7 / Dynamic Range Meter 1.1.1
log date: 2018-06-06 20:16:42

––––––––––––––––––––––––––––––––––––––––
Analyzed: Simon Andrews / Simon Andrews: And That Moment When the Bird Sings
––––––––––––––––––––––––––––––––––––––––

DR Peak RMS Duration Track
––––––––––––––––––––––––––––––––––––––––
DR16 -0.50 dB -22.67 dB 16:24 01-Violin Dialogues I & II
DR13 -0.50 dB -19.51 dB 7:46 02-And That Moment When the Bird Sings
DR14 -2.76 dB -24.61 dB 3:24 03-For the Earth Is Hollow and I Have Touched the Sky: I. Flowing (Live)
DR21 -0.50 dB -30.67 dB 5:46 04-For the Earth Is Hollow and I Have Touched the Sky: II. Slow, Contemplative (Live)
DR15 -0.50 dB -22.25 dB 3:11 05-For the Earth Is Hollow and I Have Touched the Sky: III. Cloches (Live)
DR12 -1.50 dB -17.82 dB 1:17 06-For the Earth Is Hollow and I Have Touched the Sky: IV. And I Have Touched the Sky (Live)
DR11 -0.50 dB -18.04 dB 4:10 07-My Dove, My Coney
DR14 -0.50 dB -21.43 dB 3:19 08-The Heart Has Narrow Banks
DR11 -0.50 dB -17.43 dB 4:46 09-Abiquiu Trio: I. Landscape
DR15 -0.50 dB -22.20 dB 5:30 10-Abiquiu Trio: II. Light
DR11 -0.50 dB -17.07 dB 5:43 11-Abiquiu Trio: III. Untitled (Red and Yellow Cliffs)
––––––––––––––––––––––––––––––––––––––––

Number of tracks: 11
Official DR value: DR14

Samplerate: 44100 Hz
Channels: 2
Bits per sample: 24
Bitrate: 1340 kbps
Codec: FLAC
================================================================================


Thanks to the Original customer.