Julie Ferrier | İletişim | Jackie CaseyJay Rock - Follow Me Home | La Grande Muraille TRUEFRENCH | Weißt du eigentlich, wie lieb ich dich hab?

JD Allen - Love Stone (2018) [Official Digital Download 24/96]

Posted By: SERTiL
JD Allen - Love Stone (2018) [Official Digital Download 24/96]

JD Allen - Love Stone (2018)
FLAC (tracks) 24-bit/96 kHz | Time - 44:49 minutes | 922 MB
Studio Master, Official Digital Download | Artwork: Digital Booklet

Tenor saxophonist JD Allen's output on Savant Records has been steady since his 2012 album The Matador and the Bull, and this beautiful and intensely interesting ballads album is an assured milestone in his career to date. There are patented JD-isms: that almost operatic-like swoon and smear of tone; deconstructed themes full of non-linearity and melodic asides arriving unforeseen. As in all of Allen's recordings, there is also a spare Chopin-like quality, with a shadowy, crepuscular character to much of the material. An album made up entirely of ballads requires a first-rate harmonic foundation and guitarist Liberty Ellman once again proves himself to be the most sensitive of accompanists, alternating between full harmonic richness and skittering, almost pointillistic lines which merely hint at the harmonies. The depth of Allen's timbre and phrasing is such that the absence of a keyboard is not really felt, and his quartet proves again that it is one of the most highly accomplished small groups in contemporary jazz.

Tracklist:
1. Stranger in Paradise (06:06)
2. Until the Real Thing Comes Along (05:05)
3. Why Was I Born (05:26)
4. You're My Thrill (05:07)
5. Come All Ye Fair and Tender Ladies (04:35)
6. Put on a Happy Face (04:58)
7. Prisoner of Love (04:39)
8. Someday (You'll Want Me to Want You) (03:58)
9. Gone with the Wind (04:55)

Personnel:
JD Allen, tenor saxophone
Liberty Ellman, guitar
Gregg August, bass
Rudy Royston, drums

foobar2000 1.3.7 / Dynamic Range Meter 1.1.1
log date: 2018-06-14 10:31:42

––––––––––––––––––––––––––––––––––––––––
Analyzed: JD Allen / Love Stone
––––––––––––––––––––––––––––––––––––––––

DR Peak RMS Duration Track
––––––––––––––––––––––––––––––––––––––––
DR10 -0.79 dB -14.58 dB 6:06 01-Stranger in Paradise
DR10 -0.60 dB -13.52 dB 5:06 02-Until the Real Thing Comes Along
DR11 -0.60 dB -13.78 dB 5:27 03-Why Was I Born
DR11 -1.16 dB -15.17 dB 5:08 04-You're My Thrill
DR11 -0.60 dB -15.00 dB 4:35 05-Come All Ye Fair and Tender Ladies
DR11 -0.60 dB -13.91 dB 4:59 06-Put on a Happy Face
DR10 -0.60 dB -14.12 dB 4:39 07-Prisoner of Love
DR10 -0.60 dB -13.43 dB 3:59 08-Someday (You'll Want Me to Want You)
DR11 -0.60 dB -14.11 dB 4:55 09-Gone with the Wind
––––––––––––––––––––––––––––––––––––––––

Number of tracks: 9
Official DR value: DR10

Samplerate: 96000 Hz
Channels: 2
Bits per sample: 24
Bitrate: 2888 kbps
Codec: FLAC
================================================================================


Thanks to the Original customer.