The Judge (2014) RATING 7.4 / 10 QUALITY POP # 24 | CM - 170 Flyers Bundle 30 Freebies 396011 | Jim Carrey Tv Past Shows | Paramavatar Shri Krishna 18th... | Pakistani Tv Channels

Douglas Tang - Hereford Experience (2018) [Official Digital Download 24/192]

Posted By: SERTiL
Douglas Tang - Hereford Experience (2018) [Official Digital Download 24/192]

Douglas Tang - Hereford Experience (2018)
FLAC (tracks) 24-bit/192 kHz | Time - 71:47 minutes | 2.55 GB
Studio Master, Official Digital Download | Artwork: Digital Booklet

Willowhayne Records presents the fifth volume in the critically acclaimed 'Experience' series, recorded on the 'Father Willis' organ of Hereford Cathedral. Played by Douglas Tang, this album shows this magnificent instrument to its full potential in music ranging from the early Baroque to the twentieth century, culminating in Whitlock's 'Plymouth Suite.' Douglas Tang is a sought-after British conductor and keyboardist. Currently based in London, he was previously Assistant Director of Music of St. Mary’s Cathedral, Sydney and Chapel Organist of the UNESCO World Heritage site- the Old Royal Naval College, Greenwich. He has also worked at Hereford Cathedral and Croydon Minister aside from having held the prestigious position of Organ Scholar of King’s College, Cambridge. The Hereford organ has been likened to a vintage Rolls Royce car, lovingly maintained, retaining its original and stately majest. Built in 1892 by ‘Father Willis,’ it replaced an earlier Gray and Davison instrument and its display case dates from 1863.

Tracklist:
1. Choral Song & Fugue in C Major: Choral Song (03:08)
2. Choral Song & Fugue in C Major: Fugue (04:15)
3. Grand Dialogue (09:30)
4. Allein Gott in der Höh sei Ehr, BWV 676 (05:07)
5. Prelude & Fugue No. 1 in E Minor "Great": I. Prelude (01:23)
6. Prelude & Fugue No. 1 in E Minor "Great": II. Fugue I (05:10)
7. Prelude & Fugue No. 1 in E Minor "Great": III. Fugue II (02:15)
8. Organ Sonata in D Minor, Op. 65 No. 6, MWV W61: I. Choral. Andante sostenuto - Allegro molto (08:49)
9. Organ Sonata in D Minor, Op. 65 No. 6, MWV W61: II. Fuga. Sostenuto e legato (02:35)
10. Organ Sonata in D Minor, Op. 65 No. 6, MWV W61: III. Finale. Andante (03:03)
11. 3 Psalm-Preludes, Set 2, Op. 32: No. 1, De profundis "Psalm 130" (08:44)
12. Plymouth Suite: I. Allegro risoluto (05:07)
13. Plymouth Suite: II. Lantana (03:12)
14. Plymouth Suite: III. Chanty (02:31)
15. Plymouth Suite: IV. Salix (02:49)
16. Plymouth Suite: V. Toccata (04:09)

Personnel:
Douglas Tang (organ)

foobar2000 1.3.7 / Dynamic Range Meter 1.1.1
log date: 2018-06-14 11:27:52

––––––––––––––––––––––––––––––––––––––––
Analyzed: Douglas Tang / Hereford Experience
––––––––––––––––––––––––––––––––––––––––

DR Peak RMS Duration Track
––––––––––––––––––––––––––––––––––––––––
DR10 -3.60 dB -17.74 dB 3:08 01-Choral Song & Fugue in C Major: Choral Song
DR12 -0.10 dB -17.35 dB 4:15 02-Choral Song & Fugue in C Major: Fugue
DR12 -1.07 dB -17.10 dB 9:30 03-Grand Dialogue
DR10 -13.43 dB -25.45 dB 5:08 04-Allein Gott in der Höh sei Ehr, BWV 676
DR9 -3.94 dB -14.95 dB 1:24 05-Prelude & Fugue No. 1 in E Minor "Great": I. Prelude
DR10 -3.41 dB -18.13 dB 5:11 06-Prelude & Fugue No. 1 in E Minor "Great": II. Fugue I
DR10 -2.77 dB -16.56 dB 2:16 07-Prelude & Fugue No. 1 in E Minor "Great": III. Fugue II
DR11 -1.38 dB -16.77 dB 8:50 08-Organ Sonata in D Minor, Op. 65 No. 6, MWV W61: I. Choral. Andante sostenuto - Allegro molto
DR9 -3.59 dB -16.06 dB 2:36 09-Organ Sonata in D Minor, Op. 65 No. 6, MWV W61: II. Fuga. Sostenuto e legato
DR8 -10.00 dB -22.27 dB 3:03 10-Organ Sonata in D Minor, Op. 65 No. 6, MWV W61: III. Finale. Andante
DR12 -2.26 dB -20.34 dB 8:45 11-3 Psalm-Preludes, Set 2, Op. 32: No. 1, De profundis "Psalm 130"
DR13 -0.10 dB -18.07 dB 5:08 12-Plymouth Suite: I. Allegro risoluto
DR10 -11.83 dB -28.71 dB 3:13 13-Plymouth Suite: II. Lantana
DR11 -17.01 dB -31.56 dB 2:32 14-Plymouth Suite: III. Chanty
DR8 -13.51 dB -28.37 dB 2:50 15-Plymouth Suite: IV. Salix
DR11 -0.20 dB -16.83 dB 4:10 16-Plymouth Suite: V. Toccata
––––––––––––––––––––––––––––––––––––––––

Number of tracks: 16
Official DR value: DR10

Samplerate: 192000 Hz
Channels: 2
Bits per sample: 24
Bitrate: 5177 kbps
Codec: FLAC
================================================================================


Thanks to the Original customer.